Determine device fr...
 
Notifications
Clear all

Determine device from metadata?

Enuenated
(@enuenated)
New Member

Hey Guys,

I would like to ask you if it is possible for someone to determine the source device (Manufacturer, Model Name) used to create this video based on this metadata:

Spoiler
General
Format : MPEG-4
Format profile : Base Media / Version 2
Codec ID : mp42 (isom/mp42)
File size : 93.6 MiB
Duration : 55 s 314 ms
Overall bit rate : 14.2 Mb/s
com.android.version : 10

Video
ID : 1
Format : AVC
Format/Info : Advanced Video Codec
Format profile : [email protected]
Format settings : CABAC / 1 Ref Frames
Format settings, CABAC : Yes
Format settings, Reference frames : 1 frame
Format settings, GOP : M=1, N=30
Codec ID : avc1
Codec ID/Info : Advanced Video Coding
Duration : 55 s 314 ms
Bit rate : 13.9 Mb/s
Width : 1 920 pixels
Height : 1 080 pixels
Display aspect ratio : 16:9
Rotation : 90°
Frame rate mode : Variable
Frame rate : 30.000 FPS
Minimum frame rate : 29.980 FPS
Maximum frame rate : 30.040 FPS
Color space : YUV
Chroma subsampling : 4:2:0
Bit depth : 8 bits
Scan type : Progressive
Bits/(Pixel*Frame) : 0.224
Stream size : 91.9 MiB (98%)
Title : VideoHandle
Language : English
Color range : Limited
Color primaries : BT.709
Transfer characteristics : BT.601
Matrix coefficients : BT.709
Codec configuration box : avcC

Audio
ID : 2
Format : AAC LC
Format/Info : Advanced Audio Codec Low Complexity
Codec ID : mp4a-40-2
Duration : 55 s 298 ms
Duration_FirstFrame : 258 ms
Bit rate mode : Constant
Bit rate : 256 kb/s
Channel(s) : 2 channels
Channel layout : L R
Sampling rate : 48.0 kHz
Frame rate : 46.875 FPS (1024 SPF)
Compression mode : Lossy
Stream size : 1.68 MiB (2%)
Title : SoundHandle
Language : English

This topic was modified 3 weeks ago 2 times by Enuenated
Quote
Topic starter Posted : 16/04/2021 12:21 pm
Topic Tags
giandega
(@giandega)
Active Member

how you obtained this metadata? Have you got the file?

ReplyQuote
Posted : 16/04/2021 3:34 pm
Enuenated
(@enuenated)
New Member

Yes, I got this file via DVD. The source device is unknown.

ReplyQuote
Topic starter Posted : 19/04/2021 7:56 am
giandega
(@giandega)
Active Member

try to analyze the file with exiftool with https://exiftool.org , maybe you find more metadata

This post was modified 3 weeks ago by giandega
ReplyQuote
Posted : 19/04/2021 8:21 am
Enuenated
(@enuenated)
New Member

Yes, I have already done without noticeable results.

ReplyQuote
Topic starter Posted : 19/04/2021 11:37 am
giandega
(@giandega)
Active Member

ok if you understand italian I can point you to a few video

ReplyQuote
Posted : 19/04/2021 11:44 am
Enuenated
(@enuenated)
New Member

No I dont, but I can try it 😉

ReplyQuote
Topic starter Posted : 19/04/2021 1:13 pm
giandega
(@giandega)
Active Member

I wrote you a PM

bye

ReplyQuote
Posted : 19/04/2021 1:26 pm
Share: